Multistream обычными бытовыми ресиверами

Тут обсуждаем спутниковые тюнера разных брендов
Аватара пользователя
vitalik19
Зарегистрированный Пользователь
Зарегистрированный Пользователь
Сообщения: 204
Зарегистрирован: 23 фев 2015, 19:11
Благодарил (а): 181 раз
Поблагодарили: 222 раза

Multistream обычными бытовыми ресиверами

Непрочитанное сообщение vitalik19 »

на сегодняшний день Multistream можно принять обычными бытовыми ресиверами Openbox SX серии и их братьями Skyway:
например:
Провайдер ZeonBud

Изображение

Изображение

Аватара пользователя
vitalik19
Зарегистрированный Пользователь
Зарегистрированный Пользователь
Сообщения: 204
Зарегистрирован: 23 фев 2015, 19:11
Благодарил (а): 181 раз
Поблагодарили: 222 раза

Непрочитанное сообщение vitalik19 »

Также вещание Multistream идет с 96.5°E - Express AM3

Изображение

Аватара пользователя
vitali203
DX-er
DX-er
Сообщения: 71
Зарегистрирован: 28 фев 2015, 13:06
Ресивер: Openbox, Denys
Благодарил (а): 7 раз
Поблагодарили: 28 раз
Возраст: 51

Непрочитанное сообщение vitali203 »

Мультистрим можно принимать на:
- Ресиверах Openbox серии SX (с ПО 3.01.56, 3.01.74, 3.01.90,3.01.92, 3.01.93, 3.01.98) и подобных ресиверах на процессорах STiH237, STiH239 и STiH254.
- Ресивере GI 8120 на Энигме2 с имиджем CCCP OpenAR-P MOD024730
- Ресивере AMIKO SHD-8900 Alien - Open Pli enigma2-20140902-Taapat.
- Карту Omicom S2 PCI rev.3 (DVB-S/S2) и тоже со спец ПО от CrazyCat.
- Профессиональные ресиверы
Последний раз редактировалось vitali203 02 мар 2015, 23:31, всего редактировалось 2 раза.

Аватара пользователя
vitalik19
Зарегистрированный Пользователь
Зарегистрированный Пользователь
Сообщения: 204
Зарегистрирован: 23 фев 2015, 19:11
Благодарил (а): 181 раз
Поблагодарили: 222 раза

Непрочитанное сообщение vitalik19 »

Multistream с 31Е
Изображение

Аватара пользователя
VodzigorLans
feedhunter
feedhunter
Сообщения: 636
Зарегистрирован: 05 мар 2015, 22:25
Благодарил (а): 923 раза
Поблагодарили: 495 раз

Multistream обычными бытовыми ресиверами Openbox SX серии и их братьями Skyway

Непрочитанное сообщение VodzigorLans »

Приём мультистрима на Openbox SX6 12.5w 12718H36510


Изображение

Изображение

Изображение

Аватара пользователя
VodzigorLans
feedhunter
feedhunter
Сообщения: 636
Зарегистрирован: 05 мар 2015, 22:25
Благодарил (а): 923 раза
Поблагодарили: 495 раз

Multistream обычными бытовыми ресиверами Openbox SX серии и их братьями Skyway

Непрочитанное сообщение VodzigorLans »

Приём мультистрима на Openbox SX6 12.5w 12555V4104 2/3

Изображение

Изображение

Аватара пользователя
CrazyCat
Зарегистрированный Пользователь
Зарегистрированный Пользователь
Сообщения: 228
Зарегистрирован: 26 фев 2015, 21:20
Ресивер: Openbox X800, SatIntegral T820, GI 8120 Lite, SatIntegral S1311
Антенна(ы): Strong 0.95m + Powertech DG240 motor, CA-902 0.95m 4w+5e+9e+13e Ku Universal, CA-600 36e Ku Circular
Благодарил (а): 36 раз
Поблагодарили: 213 раз

Непрочитанное сообщение CrazyCat »

vitali203 писал(а):Ресивере GI 8120 на Энигме2 с имиджем CCCP OpenAR-P MOD024730
- Ресивере AMIKO SHD-8900 Alien - Open Pli enigma2-20140902-Taapat.
Точнее с имиджами на базе AR-P (с поддержкой мультистрим в драйвере stv090x и оболочке enigma2, моего авторства). Правда с некоторыми глюками в картинке (аппаратный глюк во набортном демоде чипа STi7111).
vitali203 писал(а):Карту Omicom S2 PCI rev.3 (DVB-S/S2) и тоже со спец ПО от CrazyCat.
И еще куче других с демодуляторами STV090x cut 3.0, STV091x :)

Аватара пользователя
CrazyCat
Зарегистрированный Пользователь
Зарегистрированный Пользователь
Сообщения: 228
Зарегистрирован: 26 фев 2015, 21:20
Ресивер: Openbox X800, SatIntegral T820, GI 8120 Lite, SatIntegral S1311
Антенна(ы): Strong 0.95m + Powertech DG240 motor, CA-902 0.95m 4w+5e+9e+13e Ku Universal, CA-600 36e Ku Circular
Благодарил (а): 36 раз
Поблагодарили: 213 раз

Multistream обычными бытовыми ресиверами Openbox SX серии и их братьями Skyway

Непрочитанное сообщение CrazyCat »

CrazyCat писал(а):Точнее с имиджами на базе AR-P (с поддержкой мультистрим в драйвере stv090x и оболочке enigma2, моего авторства). Правда с некоторыми глюками в картинке (аппаратный глюк во набортном демоде чипа STi7111).
А теперь вообще без глюков :) Taapat OpenAR-P с последними обновлениями с feed'a.
Изображение
Изображение
Изображение
Изображение

Аватара пользователя
VodzigorLans
feedhunter
feedhunter
Сообщения: 636
Зарегистрирован: 05 мар 2015, 22:25
Благодарил (а): 923 раза
Поблагодарили: 495 раз

Multistream обычными бытовыми ресиверами

Непрочитанное сообщение VodzigorLans »

12.5W 12541 H 28230 5/6
Новый канал BIKE UK

Изображение

Код: Выделить всё

General
ID                          : 2 (0x2)
Complete name               : D:\openbox1\Recordings\BIKE UK.ts
Format                      : MPEG-TS
File size                   : 40.4 MiB
Duration                    : 47s 957ms
Overall bit rate mode       : Variable
Overall bit rate            : 6 959 Kbps

Video
ID                          : 101 (0x65)
Menu ID                     : 1 (0x1)
Format                      : MPEG Video
Format version              : Version 2
Format profile              : Main@Main
Format settings, BVOP       : No
Format settings, Matrix     : Custom
Format settings, GOP        : N=24
Format settings, picture st : Field
Codec ID                    : 2
Duration                    : 47s 860ms
Bit rate mode               : Variable
Bit rate                    : 6 421 Kbps
Maximum bit rate            : 6 545 Kbps
Width                       : 720 pixels
Height                      : 576 pixels
Display aspect ratio        : 16:9
Frame rate                  : 25.000 fps
Standard                    : PAL
Color space                 : YUV
Chroma subsampling          : 4:2:0
Bit depth                   : 8 bits
Scan type                   : Interlaced
Scan order                  : Top Field First
Compression mode            : Lossy
Bits/(Pixel*Frame)          : 0.619
Time code of first frame    : 14:17:25:12
Time code source            : Group of pictures header
GOP, Open/Closed            : Open
Stream size                 : 36.6 MiB (91%)

Audio
ID                          : 102 (0x66)
Menu ID                     : 1 (0x1)
Format                      : MPEG Audio
Format version              : Version 1
Format profile              : Layer 2
Codec ID                    : 3
Duration                    : 47s 904ms
Bit rate mode               : Constant
Bit rate                    : 192 Kbps
Channel(s)                  : 2 channels
Sampling rate               : 48.0 KHz
Compression mode            : Lossy
Delay relative to video     : -120ms
Stream size                 : 1.10 MiB (3%)
Language                    : English

Menu
ID                          : 106 (0x6A)
Menu ID                     : 1 (0x1)
Duration                    : 47s 957ms
List                        : 101 (0x65) (MPEG Video) / 102 (0x66) (MPEG Audio, English)
Language                    :  / English
Maximum bit rate            : 7000000


Новые каналы на 12718H36510 все mpeg2 2-4mbit
cielo, DEEJAY TV, FOCUS, LaEFFE, RadioItaliaTV, Sky TG24, Winga TV



Изображение

Изображение

Изображение

Изображение

Изображение

Изображение

Изображение

Аватара пользователя
wellikan
Site Admin
Site Admin
Сообщения: 3249
Зарегистрирован: 23 фев 2015, 09:55
Ресивер: Dr.HD 1000 Combo, Denys H.265, TBS 6903
Антенна(ы): Parabola 1.4м
Благодарил (а): 2116 раз
Поблагодарили: 2439 раз
Возраст: 41

Multistream обычными бытовыми ресиверами

Непрочитанное сообщение wellikan »

Численность ресиверов поддерживающих Multistream увеличивается можно сказать с каждым днём.
Недавно появился не дорогой спутниковый ресивер X 80 HD который тоже поддерживает Multistream
multistrem.jpg

Кто сейчас на конференции

Сейчас этот форум просматривают: CCBot и 0 гостей